*** M U S I C - C L U B ***
Would you like to react to this message? Create an account in a few clicks or log in to continue.


World Music Forum
 
PříjemGalleryLatest imagesRegistracePřihlášení

 

 DJ Le Salt - Retro Party Vol. 1, 2, 3, 4, 5 + Bonus (2009)

Goto down 
5 posters
AutorZpráva
gahan
MEGA PŘISPĚVATEL
MEGA PŘISPĚVATEL
gahan


Příspěvky : 182
Scorpio Věk : 48
Registrace : 01. 05. 08

DJ Le Salt - Retro Party Vol. 1, 2, 3, 4, 5 + Bonus (2009) Empty
PříspěvekPředmět: DJ Le Salt - Retro Party Vol. 1, 2, 3, 4, 5 + Bonus (2009)   DJ Le Salt - Retro Party Vol. 1, 2, 3, 4, 5 + Bonus (2009) Icon_minitime31/1/2011, 18:49

DJ Le Salt - Retro Party Vol.1 (2009) [DVD5]

DJ Le Salt - Retro Party Vol. 1, 2, 3, 4, 5 + Bonus (2009) Retroparty1dvd.thDJ Le Salt - Retro Party Vol. 1, 2, 3, 4, 5 + Bonus (2009) 82728221.thDJ Le Salt - Retro Party Vol. 1, 2, 3, 4, 5 + Bonus (2009) 40617778.thDJ Le Salt - Retro Party Vol. 1, 2, 3, 4, 5 + Bonus (2009) 65623083.th

INFO :
kód:
Format                          : MPEG-PS
File size                        : 4 310 MiB
Duration                        : 1h 16mn 6s
Overall bit rate                : 7 495 Kbps

Video
ID                              : 224 (0xE0)
Format                          : MPEG Video
Format version                  : Version 2
Format profile                  : Main@Main
Format settings, BVOP            : Yes
Format settings, Matrix          : Default
Format settings, GOP            : M=3, N=15
Bit rate mode                    : Variable
Bit rate                        : 7 154 Kbps
Nominal bit rate                : 8 000 Kbps
Width                            : 720 pixels
Height                          : 480 pixels
Display aspect ratio            : 4:3
Frame rate                      : 29.970 fps
Standard                        : NTSC
Color space                      : YUV
Chroma subsampling              : 4:2:0
Bit depth                        : 8 bits
Scan type                        : Interlaced
Scan order                      : Bottom Field First
Compression mode                : Lossy
Bits/(Pixel*Frame)              : 0.691
Stream size                      : 977 MiB (95%)

Audio
ID                              : 128 (0x80)
Format                          : AC-3
Format/Info                      : Audio Coding 3
Mode extension                  : CM (complete main)
Bit rate mode                    : Constant
Bit rate                        : 192 Kbps
Channel(s)                      : 2 channels
Channel positions                : Front: L R
Sampling rate                    : 48.0 KHz
Bit depth                        : 16 bits
Compression mode                : Lossy
Delay relative to video          : -67ms
Stream size                      : 26.2 MiB (3%)

Recovery : +5%
Cover : Screen
Compression method : Best

TRACKLIST :
1. Rock Me Mama (Re-Edit) - Le Salt
2. Mikron - Polynesia
3. Eddy Huntington - U.S.S.R.
4. Lee Marrow - Sayonara
5. Valerie Dore - The Night
6. Scotch – Disco Band
7. Spagna - Easy Lady
8. Spagna - Call Me
9. Bad Boys Blue - Pretty Young Girl
10. Fancy - Bolero
11.Laura Branigan - Shattered Glass
12. Pet Shop Boys - Heart
13. Level42 - Lessons To Love
14. Sandra - In The Heat Of The Night
15. Camouflage - The Great Commandment
16. Erasure - Stop
17. Al Corley - Square Room
18. Yazoo - Don't Go
19. New Order - Blue Monday
20. Eddy Grant - Gimme Hoppe Jo' Anna (
21. Alexia - Uh La La La
22. Twenty 4 Seven - Take Me Away
23. Paradiso - Bailando
24. Culture Beat - Mr. Vain
25. 2 Bros. On The 4th Floor - Dreams
26. Daze - Superhero
27. Ace Of Base - Cruel Summer
28. Ace Of Base - Beautifull Life
29. John Scatman - Scatman
30. Vengaboys - Up & Down
31. Los Ilegales - La Morena
32. El Simbolo - Levantando Las Manos
33. El Simbolo - Ven Y Canta
34. Sandy & Papo - Huele Pega
35. Proyecto Uno - El Tiburón
36. Sandy & Papo - El Alacrán
37. Los Ilegales - Fiesta Caliente
38. Los Ilegales - El Taqui Taqui
39. Bruce Springsteen - Dancing In The Dark
40. Dire Straits - Sultans Of Swing
41. George Harrison - I've Got My Mind Set On You
42. Queen - Crazy Little Thing Called Love
43. Dragon - Rain (Extended)
44. Fine Young Cannibals - Good Thing
45. A-Ha - Take On Me
46. Dire Straits - Way Of Life
47. Steve Wonder - Part Time A Lover
48. Billy Idol - Dancing With Myself
49. David Bowie - Modern Love
50. Brian Ferry – Slave To Love
51. Christopher Cross - Sailing
52. The Eagles - Hotel California
53. Nazareth - Love Hurts
54. Chris De Burgh - Lady In Red
55. Foreigner - I Want To Know What Love Is

DOWNLOAD : fileserve/hellshare
( Click'n'Load with JDownloader )

kód:
http://linkcrypt.ws/dir/45u3ucby360is82

>>LINKS ARE INTERCHANGEABLE<<
nO pASS
...YOU CAN SHARE MY UPLOADS...


Naposledy upravil gahan dne 27/2/2011, 12:02, celkově upraveno 5 krát
Návrat nahoru Goto down
ROBERTO@
MAXI PŘISPĚVATEL
MAXI PŘISPĚVATEL
ROBERTO@


Male Příspěvky : 602
Místo : CHILE
Registrace : 30. 12. 07

DJ Le Salt - Retro Party Vol. 1, 2, 3, 4, 5 + Bonus (2009) Empty
PříspěvekPředmět: Re: DJ Le Salt - Retro Party Vol. 1, 2, 3, 4, 5 + Bonus (2009)   DJ Le Salt - Retro Party Vol. 1, 2, 3, 4, 5 + Bonus (2009) Icon_minitime4/2/2011, 00:51

thanks
Návrat nahoru Goto down
http://www.clasicos80.foroactivo.com/
gahan
MEGA PŘISPĚVATEL
MEGA PŘISPĚVATEL
gahan


Příspěvky : 182
Scorpio Věk : 48
Registrace : 01. 05. 08

DJ Le Salt - Retro Party Vol. 1, 2, 3, 4, 5 + Bonus (2009) Empty
PříspěvekPředmět: Re: DJ Le Salt - Retro Party Vol. 1, 2, 3, 4, 5 + Bonus (2009)   DJ Le Salt - Retro Party Vol. 1, 2, 3, 4, 5 + Bonus (2009) Icon_minitime10/2/2011, 17:29

DJ Le Salt - Retro party Vol. 2 (2009)[DVD5]

DJ Le Salt - Retro Party Vol. 1, 2, 3, 4, 5 + Bonus (2009) 86267340.thDJ Le Salt - Retro Party Vol. 1, 2, 3, 4, 5 + Bonus (2009) 69781369.thDJ Le Salt - Retro Party Vol. 1, 2, 3, 4, 5 + Bonus (2009) 26735689.thDJ Le Salt - Retro Party Vol. 1, 2, 3, 4, 5 + Bonus (2009) Retroparty2dvd.th

INFO :
kód:
Format                          : MPEG-PS
File size                        : 4 350 MiB
Duration                        : 1h 17mn 10s
Overall bit rate                : 7 686 Kbps

Video
ID                              : 224 (0xE0)
Format                          : MPEG Video
Format version                  : Version 2
Format profile                  : Main@Main
Format settings, BVOP            : Yes
Format settings, Matrix          : Default
Format settings, GOP            : M=3, N=15
Bit rate mode                    : Variable
Bit rate                        : 5 997 Kbps
Nominal bit rate                : 9 500 Kbps
Width                            : 720 pixels
Height                          : 480 pixels
Display aspect ratio            : 4:3
Frame rate                      : 29.970 fps
Standard                        : NTSC
Color space                      : YUV
Chroma subsampling              : 4:2:0
Bit depth                        : 8 bits
Scan type                        : Progressive
Compression mode                : Lossy
Bits/(Pixel*Frame)              : 0.579
Stream size                      : 799 MiB (78%)

Audio
ID                              : 160 (0xA0)
Format                          : PCM
Format settings, Endianness      : Big
Format settings, Sign            : Signed
Muxing mode                      : DVD-Video
Bit rate mode                    : Constant
Bit rate                        : 1 536 Kbps
Channel(s)                      : 2 channels
Channel positions                : Front: L R
Sampling rate                    : 48.0 KHz
Bit depth                        : 16 bits
Delay relative to video          : -67ms
Stream size                      : 205 MiB (20%)

Recovery : +5%
Cover : Yes
Compression method : Best

Tracklist:
01 - El Baile De Los Que Sobran - Los Prisioneros
02 - Me Vuelvo Loco - Vilma Palma E Vampiros
03 - Nada Personal (Rmx) - Soda Stereo
04 - Debajo Del Puente - Ariel Roth
05 - En La Ciudad De La Furia - Soda Stereo
06 - La Muralla Verde - Los Enanitos Verdes
07 - Es Por Amor - Git
08 - Costumbres Argentinas - Los Abuelos
09 - La Calle Es Su Lugar - Git
10 - Demoliendo Hoteles - Charly Garcia
11 - No Me Dejan Salir - Charly Garcia
12 - Tele-K - Soda Stereo
13 - Mi Sombra En La Pared - Miguel Mateos
14 - Una Luna De Miel En La Mano - Virus
15 - Tren Al Sur - Los Prisioneros
16 - Burn Rubber On Me - The Gap Band
17 - On The Road Again - Barrabas
18 - S.O.S. (Love To Rescue) - Dee D. Jackson
19 - Last Train To London - E.L.O.
20 - Funkytown - Lipps. Inc.
21 - Stars On 45 - Beatles Medley
22 - One Way Ticket - Eruption
23 - The Model - Kraftwerk
24 - Ring My Bell - Anita Ward
25 - Catch The Cat - Cherry Lane
26 - La Chica - African Magic Combo
27 - Abracadabra - Steve Miller Band
28 - Gimme Gimme - Abba
29 - Hands Up - Ottawan
30 - D.I.S.C.O. - Ottawan
31 - Gotta Go Home - Boney M
32 - Ma Baker - Boney M
33 - Born To Be Alive - Patrick Hernandez
34 - Superfreak - Rick James
35 - Moscow Disco - Telex
36 - Sacrifice - Elton John
37 - Don't Break My Heart - Toni Braxton
38 - Joe Le Taxi - Vanessa Paradis
39 - Total Eclipse Of The Heart – Bonnie Tyler
40 - Please For Give Me - Bryan Adams
41 - I'll Be Loving You - New Kids On The Block
42 - Forever Young - Alphaville
43 - One More Night - Phil Collins
44 - Love Theme From Flashdance – Helen St. Jones
44 - Heaven - Bryan Adams
45 - Que No Quede Huella - Bronco
46 - Llorar, Llorar - Los Byby's
47 - Amor Prohibido - Grupo Bryndi's
48 - Como Te Voy A Olvidar - Los Angeles Azules
49 - Mi Niña Mujer - Los Angeles Azules
50 - Pero Tu No Estas - Grupo Bryndi's
51 - Entrega De Amor - Los Angeles Azules
52 - Vete De Mi Lado - Los Chakales
54 - No Te Lo Puedo Creer - La Rosa
55 - No Me Arrepiento De Este Amor - Gilda
56 - Casi La Mato - Los Chakales
57 - Amor Adolescente - Grupo Red
58 - Rompo Las Cadenas - Los Gorilas
59 - Porque Te Amo - La Cumbia
60 - Fue Como Una Rafaga - Rafaga
61 - Corazon Valiente - Gilda
62 - La Ventanita - Grupo Sombras
63 - Nunca Me Faltes - Antonio Rios

DOWNLOAD : fileserve/hellshare (4x957MB + 1x526MB)
( Click'n'Load with JDownloader )

kód:
http://linkcrypt.ws/dir/4bpvzv23r6213cn

>>LINKS ARE INTERCHANGEABLE<<
nO pASS
...YOU CAN SHARE MY UPLOADS...

Návrat nahoru Goto down
gahan
MEGA PŘISPĚVATEL
MEGA PŘISPĚVATEL
gahan


Příspěvky : 182
Scorpio Věk : 48
Registrace : 01. 05. 08

DJ Le Salt - Retro Party Vol. 1, 2, 3, 4, 5 + Bonus (2009) Empty
PříspěvekPředmět: Re: DJ Le Salt - Retro Party Vol. 1, 2, 3, 4, 5 + Bonus (2009)   DJ Le Salt - Retro Party Vol. 1, 2, 3, 4, 5 + Bonus (2009) Icon_minitime19/2/2011, 12:13

DJ Le Salt - Retro party Vol. 4 (2009)[DVD5]

DJ Le Salt - Retro Party Vol. 1, 2, 3, 4, 5 + Bonus (2009) 24608346.thDJ Le Salt - Retro Party Vol. 1, 2, 3, 4, 5 + Bonus (2009) 84251711.thDJ Le Salt - Retro Party Vol. 1, 2, 3, 4, 5 + Bonus (2009) 24725148.thDJ Le Salt - Retro Party Vol. 1, 2, 3, 4, 5 + Bonus (2009) Retroparty4dvd.th

INFO :
kód:
Format                          : MPEG-PS
File size                        : 4 350 MiB
Duration                        : 1h 12mn 53s
Overall bit rate                : 6 462 Kbps

Video
ID                              : 224 (0xE0)
Format                          : MPEG Video
Format version                  : Version 2
Format profile                  : Main@Main
Format settings, BVOP            : Yes
Format settings, Matrix          : Default
Format settings, GOP            : M=3, N=15
Bit rate mode                    : Variable
Bit rate                        : 6 141 Kbps
Nominal bit rate                : 9 574 Kbps
Width                            : 720 pixels
Height                          : 480 pixels
Display aspect ratio            : 4:3
Frame rate                      : 29.970 fps
Standard                        : NTSC
Color space                      : YUV
Chroma subsampling              : 4:2:0
Bit depth                        : 8 bits
Scan type                        : Progressive
Compression mode                : Lossy
Bits/(Pixel*Frame)              : 0.593
Stream size                      : 973 MiB (95%)

Audio
ID                              : 128 (0x80)
Format                          : AC-3
Format/Info                      : Audio Coding 3
Mode extension                  : CM (complete main)
Bit rate mode                    : Constant
Bit rate                        : 192 Kbps
Channel(s)                      : 2 channels
Channel positions                : Front: L R
Sampling rate                    : 48.0 KHz
Bit depth                        : 16 bits
Compression mode                : Lossy
Delay relative to video          : -67ms
Stream size                      : 30.4 MiB (3%)

Recovery : +5%
Cover : Yes
Compression method : Best

Tracklist:
01. Alphaville - Big In Japan
02. Berlin - Take My Breath Away
03. Sandra - Maria Magdalena
04. A Ha - Touchy
05. Duran Duran - Notorious
06. Men At Work - Down Under
07. Inxs - Need You Tonight
08. Pet Shop Boys - Domino Dancing
09. Tony Esposito - Kalimba De Luna
10. Depeche Mode - Enjoy The Silence
11. Depeche Mode - Everything Counts
12. Pet Shop Boys - West End Girls
13. Madonna - Into The Groove
14. Falco - Der Kommissar
15. New Order - Bizarre Love Triangle
16. A Ha - I've Been Losing You
17. Depeche Mode - Strangelove
18. Erasure - Love To Hate You
19. Inxs - Suicide Blonde
20. John Farnham - Age Of Reason
21. Cyndi Lauper - Girls Just Want To Have Fun
22. Limahl - Never Ending Story
23. Erasure - Chains Of Love
24. Talk Talk - It's My Life
25. Cutting Crew - I've Just Died In Your Arms
26. Mike Oldfield - Moonlight Shadow
27. Inxs - Original Sin
28. Camouflage - Love Is A Shield
29. Guns N'roses - Don't Cry
30. Def Leppard - Love Bites
31. Europe - Carrie
32. Metallica - The Unforgiven
33. Bon Jovi - Always
34. Aerosmith - Fly Away From Here
35. Nazareth - Dream On
36. Scorpions - Wind Of Change
37. Poison - Life Go On
38. Modern Talking - You Can Win If You Want
39. Modern Talking - Geronimo's Cadillac
40. Modern Talking - Atlantis Is calling
41. Modern Talking . Brother Louie
42. CC Catch - Cause You Are Young
43. Modern Talking - Cheri Cheri Lady
44. CC Catch - Strangers By Night
45. CC Catch - Heartbreak Hotel
46. Modern Talking - You're My Heart, You're My Soul
47. CC Catch - Soul Survivor
48. Kaoma - Lambada
49. Kaoma - Dançando Lambada
50. Kaoma - Melodia De Amor
51. Natusha - Tu La Tienes Que Pagar
52. Kaoma - Lambamor
BONUS MIX “BREAKDANCE MEDLEY”:
53. Herbie Hancock - Rock It
54. Afrika Bambaataa & Soul Sonic Force - Frantic Situation
55. Break Machine - Street Dance
56. Ollie & Jerry - Breakin'
57. Newcleus - Jam On It
58. Shannon - Let The Musc Play
59. Break Machine - Breakdance Party
60. Arthur Baker - Breaker's Revenge
61. Hot Streak - Body Work
62. Bar Kays - Freakshow

DOWNLOAD : fileserve/hellshare (4x957MB + 1x590MB)
( Click'n'Load with JDownloader )

kód:
http://u.bb/5uP
...copy link in browser, wait 5s, click on "SKIP AD", click on "Click´n´Load" and download...

>>LINKS ARE INTERCHANGEABLE<<
nO pASS
...YOU CAN SHARE MY UPLOADS...
Návrat nahoru Goto down
tico
mistr hudby
mistr hudby
tico


Příspěvky : 36
Registrace : 11. 04. 10

DJ Le Salt - Retro Party Vol. 1, 2, 3, 4, 5 + Bonus (2009) Empty
PříspěvekPředmět: Re: DJ Le Salt - Retro Party Vol. 1, 2, 3, 4, 5 + Bonus (2009)   DJ Le Salt - Retro Party Vol. 1, 2, 3, 4, 5 + Bonus (2009) Icon_minitime20/2/2011, 06:19

thanks
Návrat nahoru Goto down
gahan
MEGA PŘISPĚVATEL
MEGA PŘISPĚVATEL
gahan


Příspěvky : 182
Scorpio Věk : 48
Registrace : 01. 05. 08

DJ Le Salt - Retro Party Vol. 1, 2, 3, 4, 5 + Bonus (2009) Empty
PříspěvekPředmět: Re: DJ Le Salt - Retro Party Vol. 1, 2, 3, 4, 5 + Bonus (2009)   DJ Le Salt - Retro Party Vol. 1, 2, 3, 4, 5 + Bonus (2009) Icon_minitime20/2/2011, 12:16

DJ Le Salt - Retro party Vol. 5 (2009)[DVD5]

DJ Le Salt - Retro Party Vol. 1, 2, 3, 4, 5 + Bonus (2009) 82340303.thDJ Le Salt - Retro Party Vol. 1, 2, 3, 4, 5 + Bonus (2009) 65677406.thDJ Le Salt - Retro Party Vol. 1, 2, 3, 4, 5 + Bonus (2009) 66116016.thDJ Le Salt - Retro Party Vol. 1, 2, 3, 4, 5 + Bonus (2009) Djlesalt5.th

INFO :
kód:
Format                          : MPEG-PS
File size                        : 2 320 MiB
Duration                        : 46mn 58s
Overall bit rate                : 7 217 Kbps

Video
ID                              : 224 (0xE0)
Format                          : MPEG Video
Format version                  : Version 2
Format profile                  : Main@Main
Format settings, BVOP            : Yes
Format settings, Matrix          : Default
Format settings, GOP            : M=3, N=15
Bit rate mode                    : Variable
Bit rate                        : 6 881 Kbps
Nominal bit rate                : 9 500 Kbps
Width                            : 720 pixels
Height                          : 480 pixels
Display aspect ratio            : 4:3
Frame rate                      : 29.970 fps
Standard                        : NTSC
Color space                      : YUV
Chroma subsampling              : 4:2:0
Bit depth                        : 8 bits
Scan type                        : Progressive
Compression mode                : Lossy
Bits/(Pixel*Frame)              : 0.664
Stream size                      : 976 MiB (95%)

Audio
ID                              : 128 (0x80)
Format                          : AC-3
Format/Info                      : Audio Coding 3
Mode extension                  : CM (complete main)
Bit rate mode                    : Constant
Bit rate                        : 192 Kbps
Channel(s)                      : 2 channels
Channel positions                : Front: L R
Sampling rate                    : 48.0 KHz
Bit depth                        : 16 bits
Compression mode                : Lossy
Delay relative to video          : -66ms
Stream size                      : 27.2 MiB (3%)

Recovery : +5%
Cover : Yes
Compression method : Best

Tracklist - screen

DOWNLOAD : fileserve/hellshare (2x957MB + 1x452MB)
( Click'n'Load with JDownloader )

kód:
http://9.bb/CkP
...copy link in browser, wait 5s, click on "SKIP AD", click on "Click´n´Load" and download...

>>LINKS ARE INTERCHANGEABLE<<
nO pASS
...YOU CAN SHARE MY UPLOADS...
Návrat nahoru Goto down
audit
přispěvatel
přispěvatel
avatar


Příspěvky : 58
Registrace : 11. 02. 10

DJ Le Salt - Retro Party Vol. 1, 2, 3, 4, 5 + Bonus (2009) Empty
PříspěvekPředmět: Re: DJ Le Salt - Retro Party Vol. 1, 2, 3, 4, 5 + Bonus (2009)   DJ Le Salt - Retro Party Vol. 1, 2, 3, 4, 5 + Bonus (2009) Icon_minitime22/2/2011, 18:35

bounce
Návrat nahoru Goto down
gahan
MEGA PŘISPĚVATEL
MEGA PŘISPĚVATEL
gahan


Příspěvky : 182
Scorpio Věk : 48
Registrace : 01. 05. 08

DJ Le Salt - Retro Party Vol. 1, 2, 3, 4, 5 + Bonus (2009) Empty
PříspěvekPředmět: Re: DJ Le Salt - Retro Party Vol. 1, 2, 3, 4, 5 + Bonus (2009)   DJ Le Salt - Retro Party Vol. 1, 2, 3, 4, 5 + Bonus (2009) Icon_minitime27/2/2011, 12:01

DJ Le Salt - Edition Disco Club ( 2009 )[DVD5]

DJ Le Salt - Retro Party Vol. 1, 2, 3, 4, 5 + Bonus (2009) 94737975.thDJ Le Salt - Retro Party Vol. 1, 2, 3, 4, 5 + Bonus (2009) 92262381.thDJ Le Salt - Retro Party Vol. 1, 2, 3, 4, 5 + Bonus (2009) 52370126.thDJ Le Salt - Retro Party Vol. 1, 2, 3, 4, 5 + Bonus (2009) 26299328.thDJ Le Salt - Retro Party Vol. 1, 2, 3, 4, 5 + Bonus (2009) Djlesalteditiondiscoclu.th

INFO :
kód:
Format                          : MPEG-PS
File size                        : 2 870 MiB
Duration                        : 57mn 05s
Overall bit rate                : 6 999 Kbps

Video
ID                              : 224 (0xE0)
Format                          : MPEG Video
Format version                  : Version 2
Format profile                  : Main@Main
Format settings, BVOP            : Yes
Format settings, Matrix          : Default
Format settings, GOP            : M=3, N=15
Bit rate mode                    : Variable
Bit rate                        : 6 667 Kbps
Nominal bit rate                : 8 000 Kbps
Width                            : 720 pixels
Height                          : 480 pixels
Display aspect ratio            : 4:3
Frame rate                      : 29.970 fps
Standard                        : NTSC
Color space                      : YUV
Chroma subsampling              : 4:2:0
Bit depth                        : 8 bits
Scan type                        : Interlaced
Scan order                      : Bottom Field First
Compression mode                : Lossy
Bits/(Pixel*Frame)              : 0.644
Stream size                      : 749 MiB (95%)

Audio
ID                              : 128 (0x80)
Format                          : AC-3
Format/Info                      : Audio Coding 3
Mode extension                  : CM (complete main)
Bit rate mode                    : Constant
Bit rate                        : 192 Kbps
Channel(s)                      : 2 channels
Channel positions                : Front: L R
Sampling rate                    : 48.0 KHz
Bit depth                        : 16 bits
Compression mode                : Lossy
Delay relative to video          : -67ms
Stream size                      : 21.6 MiB (3%)

Recovery : +5%
Cover : Yes
Compression method : Best

Tracklist - screen

DOWNLOAD : fileserve/hellshare (3x957MB + 1x67MB)
( Click'n'Load with JDownloader )

kód:
http://9.bb/EDP
...copy link in browser, wait 5s, click on "SKIP AD", click on "Click´n´Load" and download...

>>LINKS ARE INTERCHANGEABLE<<
nO pASS
...YOU CAN SHARE MY UPLOADS...
Návrat nahoru Goto down
laco64
MEGA PŘISPĚVATEL
MEGA PŘISPĚVATEL
avatar


Příspěvky : 135
Registrace : 11. 06. 07

DJ Le Salt - Retro Party Vol. 1, 2, 3, 4, 5 + Bonus (2009) Empty
PříspěvekPředmět: Re: DJ Le Salt - Retro Party Vol. 1, 2, 3, 4, 5 + Bonus (2009)   DJ Le Salt - Retro Party Vol. 1, 2, 3, 4, 5 + Bonus (2009) Icon_minitime11/11/2012, 13:07

Laughing
Návrat nahoru Goto down
Sponsored content





DJ Le Salt - Retro Party Vol. 1, 2, 3, 4, 5 + Bonus (2009) Empty
PříspěvekPředmět: Re: DJ Le Salt - Retro Party Vol. 1, 2, 3, 4, 5 + Bonus (2009)   DJ Le Salt - Retro Party Vol. 1, 2, 3, 4, 5 + Bonus (2009) Icon_minitime

Návrat nahoru Goto down
 
DJ Le Salt - Retro Party Vol. 1, 2, 3, 4, 5 + Bonus (2009)
Návrat nahoru 
Strana 1 z 1
 Similar topics
-
» DJ Le Salt - Retro party
» 80's Summer Party (Nagy Retro Party Megamix) (a)
» Dance Party (2010) (Bonus DVD)
» Mas Nescafe Ano 6 2009 BONUS COMPLETE NTSC
» Minas Morgul - Eisengott Bonus (2009)

Povolení tohoto fóra:Nemůžete odpovídat na témata v tomto fóru
*** M U S I C - C L U B *** :: Video - klipy koncerty - Hudba z filmu :: VIDEO MUSIC - HUDEBNÍ KLIPY A VIDEA-
Přejdi na: