*** M U S I C - C L U B ***
Would you like to react to this message? Create an account in a few clicks or log in to continue.


World Music Forum
 
PříjemGalleryRegistracePřihlášení

 

 DVJ Danny Stereo - Latin Dance Session Vol. 1

Goto down 
AutorZpráva
gahan
MEGA PŘISPĚVATEL
MEGA PŘISPĚVATEL
gahan


Příspěvky : 182
Scorpio Věk : 46
Registrace : 01. 05. 08

DVJ Danny Stereo - Latin Dance Session Vol. 1 Empty
PříspěvekPředmět: DVJ Danny Stereo - Latin Dance Session Vol. 1   DVJ Danny Stereo - Latin Dance Session Vol. 1 Icon_minitime3/5/2012, 00:04

DVJ Danny Stereo - Latin Dance Session Vol. 1

DVJ Danny Stereo - Latin Dance Session Vol. 1 026334751 DVJ Danny Stereo - Latin Dance Session Vol. 1 026334752 DVJ Danny Stereo - Latin Dance Session Vol. 1 026334753  

INFO :
kód:
Format                           : AVI
Format/Info                      : Audio Video Interleave
Format profile                   : OpenDML
File size                        : 1.76 GiB
Duration                         : 45mn 43s
Overall bit rate                 : 5 504 Kbps

Video
ID                               : 0
Format                           : MPEG-4 Visual
Format profile                   : Simple@L3
Format settings, BVOP            : No
Format settings, QPel            : No
Format settings, GMC             : No warppoints
Format settings, Matrix          : Default (H.263)
Codec ID                         : XVID
Codec ID/Hint                    : XviD
Duration                         : 45mn 43s
Bit rate                         : 5 370 Kbps
Width                            : 1 280 pixels
Height                           : 720 pixels
Display aspect ratio             : 16:9
Frame rate                       : 30.000 fps
Color space                      : YUV
Chroma subsampling               : 4:2:0
Bit depth                        : 8 bits
Scan type                        : Progressive
Compression mode                 : Lossy
Bits/(Pixel*Frame)               : 0.194
Stream size                      : 1.71 GiB (98%)
Writing library                  : ZJMedia MPEG Encoder

Audio
ID                               : 1
Format                           : MPEG Audio
Format version                   : Version 1
Format profile                   : Layer 3
Mode                             : Joint stereo
Mode extension                   : MS Stereo
Codec ID                         : 55
Codec ID/Hint                    : MP3
Duration                         : 45mn 43s
Bit rate mode                    : Constant
Bit rate                         : 128 Kbps
Channel(s)                       : 2 channels
Sampling rate                    : 44.1 KHz
Compression mode                 : Lossy
Stream size                      : 41.9 MiB (2%)
Alignment                        : Split accross interleaves
Interleave, duration             : 1000 ms (29.99 video frames)

Recovery : +5%
Cover : No
Compression method : Best
Type archive : Rar / 1710MB

Tracklist:
#SORRY NO TRACKLIST#

[color=gold]DOWNLOAD :
kód:
http://download.hellshare.cz/dvj-danny-stereo-latin-dance-session-vol-1-rar/7048952/

nO pASS
...YOU CAN SHARE MY UPLOADS...

Návrat nahoru Goto down
 
DVJ Danny Stereo - Latin Dance Session Vol. 1
Návrat nahoru 
Strana 1 z 1

Povolení tohoto fóra:Nemůžete odpovídat na témata v tomto fóru
*** M U S I C - C L U B *** :: Video - klipy koncerty - Hudba z filmu :: VIDEO MUSIC - HUDEBNÍ KLIPY A VIDEA-
Přejdi na: