*** M U S I C - C L U B ***
Would you like to react to this message? Create an account in a few clicks or log in to continue.


World Music Forum
 
PříjemGalleryRegistracePřihlášení

 

 Spandau Ballet / Parade (Special Edition)FLAC

Goto down 
AutorZpráva
atyp
GIGA PŘISPĚVATEL
GIGA PŘISPĚVATEL
atyp


Příspěvky : 31248
Pisces Věk : 65
Registrace : 16. 07. 08

Spandau Ballet / Parade (Special Edition)FLAC Empty
PříspěvekPředmět: Spandau Ballet / Parade (Special Edition)FLAC   Spandau Ballet / Parade (Special Edition)FLAC Icon_minitime4/3/2021, 13:10

Spandau Ballet / Parade (Special Edition)
--------------------------------------------------------------------------------

DR Peak RMS Duration Track
--------------------------------------------------------------------------------
DR7 -0.02 dB -9.44 dB 5:11 01-Only When You Leave (2010 Remaster)
DR8 -0.02 dB -8.93 dB 4:11 02-Highly Strung (2010 Remaster)
DR10 -0.02 dB -12.02 dB 5:35 03-I'll Fly for You (2010 Remaster)
DR9 -0.02 dB -10.77 dB 5:17 04-Nature of the Beast (2010 Remaster)
DR8 -0.02 dB -10.14 dB 4:23 05-Revenge for Love (2010 Remaster)
DR8 -0.02 dB -10.18 dB 4:30 06-Always in the Back of My Mind (2010 Remaster)
DR8 -0.02 dB -9.57 dB 5:31 07-With the Pride (2010 Remaster)
DR8 -0.02 dB -10.81 dB 5:35 08-Round and Round (2010 Remaster)
DR7 -0.02 dB -9.42 dB 6:42 09-Only When You Leave (12" Version) [2010 Remaster]
DR8 -0.02 dB -9.70 dB 7:17 10-I'll Fly for You (Glide Mix) [2010 Remaster]
DR7 -0.02 dB -8.76 dB 5:21 11-Highly Strung (Extended Version) [2010 Remaster]
DR8 -0.02 dB -10.05 dB 4:35 12-Round and Round (Single Version) [2010 Remaster]
DR9 -0.02 dB -9.79 dB 5:32 13-Highly Re-Strung (2010 Remaster)
--------------------------------------------------------------------------------

Number of tracks: 13
Official DR value: DR8

Samplerate: 44100 Hz
Channels: 2
Bits per sample: 16
Bitrate: 997 kbps
Codec: FLAC


DR8 -0.03 dB -9.30 dB 4:22 01-Highly Strung (BBC In Concert)
DR9 -0.06 dB -10.89 dB 3:50 02-Communication (BBC In Concert)
DR9 -0.02 dB -10.88 dB 5:22 03-Only When You Leave (BBC In Concert)
DR9 -0.02 dB -10.44 dB 3:49 04-Foundation (BBC In Concert)
DR9 -0.02 dB -10.47 dB 4:19 05-Instinction (BBC In Concert)
DR9 -0.03 dB -11.19 dB 5:26 06-With The Pride (BBC In Concert)
DR10 -0.02 dB -11.81 dB 6:10 07-Round And Round (BBC In Concert)
DR9 -0.03 dB -11.52 dB 6:41 08-I'll Fly For You (BBC In Concert)
DR6 -0.02 dB -7.74 dB 5:45 09-Nature Of The Beast (BBC In Concert)
DR10 -0.02 dB -12.01 dB 4:06 10-Gold (BBC In Concert)
DR12 -0.02 dB -14.19 dB 6:19 11-True (BBC In Concert)
DR9 -0.02 dB -10.83 dB 5:31 12-Revenge For Love (BBC In Concert)
DR9 -0.03 dB -10.51 dB 6:15 13-Always In The Back Of My Mind (BBC In Concert)
DR10 -0.03 dB -11.47 dB 4:12 14-Paint Me Down (BBC In Concert)
DR9 -0.02 dB -10.87 dB 6:55 15-Chant No. 1 (I Don't Need This Pressure On) (BBC In Concert)
--------------------------------------------------------------------------------

Number of tracks: 15
Official DR value: DR9

Samplerate: 44100 Hz
Channels: 2
Bits per sample: 16
Bitrate: 999 kbps
Codec: FLAC
================================================================================


https://uloz.to/file/HW7sCEG3WQi0/spandau-ballet-parade-special-edition-hd-1984-pop-flac-16-44-mqa-rar
Návrat nahoru Goto down
 
Spandau Ballet / Parade (Special Edition)FLAC
Návrat nahoru 
Strana 1 z 1
 Similar topics
-
» Spandau Ballet - Through The Barricades (1986)
» Spandau Ballet Clips DVD con Menu
» Spandau Ballet The Reformation Tour 2009
» Spandau Ballet - The Reformation Tour - Live At The Q2 (2009)
» Spandau Ballet - The Reformation Tour: Live At The Q2 (2009)

Povolení tohoto fóra:Nemůžete odpovídat na témata v tomto fóru
*** M U S I C - C L U B *** :: MP3 :: TOP MP3s 1960 - 2007 - HUGE MP3s COLLECTIONS and COMPILATIONS-
Přejdi na: